PříjemCalendarFAQHledatSeznam uživatelůUživatelské skupinyRegistracePřihlášení
Share | 
 

 AVATAR S KVALITNYM ZVUKOM

Zobrazit předchozí téma Zobrazit následující téma Goto down 
AutorZpráva
kobyrk



Poèet pøíspìvkù: 3
Join date: 26. 11. 09

PříspěvekPředmět: AVATAR S KVALITNYM ZVUKOM   Wed Dec 30, 2009 12:26 pm

Avatar.2009.XviD.CZ.(verzia s kvalitným zvukom)

Obrázok


Akční / Dobrodružný / Sci-Fi / Thriller
USA, 2009, 162 min

Režie: James Cameron
Hrají: Sam Worthington, Zoe Saldana, Sigourney Weaver, Michelle Rodriguez, Giovanni Ribisi, Joel Moore, Wes Studi, Laz Alonso, CCH Pounder, Stephen Lang, Dileep Rao, James Pitt, Amy Clover, Peter Mensah, Matt Gerald
Obsah:
Ústřední postavou příběhu je Jake Sully (Sam Worthington), který byl jako mariňák zraněn a ochrnul do pasu dolů. Jake je ale vybrán k účasti na projektu Avatar, který by mu pomohl zase chodit. Když souhlasí, je jeho mysl vtělena do uměle vytvořeného hybridního těla, se kterým se musí vydat na planetu Pandora a získat důvěru jejích obyvatel. Jake ale začne chápat podstatu věcí a neví na jaké straně má být.

Kód: Vybrať všetko
http://www.csfd.cz/film/228329-avatar/


1info1
Format : AVI
Format/Info : Audio Video Interleave
File size : 952 MiB
Duration : 2h 33mn
Overal bit rate : 865 Kbps
Writing library : MPlayer

Video
Format : MPEG-4 Visual
Format profile : Streaming Video@L1
Format settings, BVOP : Yes
Format settings, QPel : No
Format settings, GMC : No warpoints
Format settings, Matrix : Default
Muxing mode : Packet Bitstream
Codec ID : XVID
Codec ID/Hint : XviD
Duration : 2h 33mn
Bit rate : 507 Kbps
Width : 656 pixels
Height : 352 pixels
Display aspect ratio : 1.864
Frame rate : 23.976 fps
Resolution : 8 bits
Colorimetry : 4:2:0
Scan type : Progressive
Bits/(Pixel*Frame) : 0.092
Stream size : 558 MiB
Writing library : XviD 50

Audio
Format : PCM
Format settings, Endianness : Little
Format settings, Sign : Unsigned
Codec ID : 1
Codec ID/Hint : Microsoft
Duration : 2h 33mn
Bit rate mode : Constant
Bit rate : 352.8 Kbps
Channel(s) : 1 channel
Sampling rate : 22.05 KHz
Resolution : 16 bits
Stream size : 388 MiB
Dabing cesky





http://uloz.to/3467670/avatar-2009-xvid-dabcz-kobyrk-zvuk-super.avi
Návrat nahoru Goto down
Zobrazit informace o autorovi
 

AVATAR S KVALITNYM ZVUKOM

Zobrazit předchozí téma Zobrazit následující téma Návrat nahoru 
Strana 1 z 1

Povolení tohoto fóra:Nemůžete odpovídat na témata v tomto fóru
Stahni-Film ::  :: -